<?xml version="1.0" standalone="no"?>
<!DOCTYPE svg PUBLIC "-//W3C//DTD SVG 1.1//EN" "http://www.w3.org/Graphics/SVG/1.1/DTD/svg11.dtd" >
<svg xmlns="http://www.w3.org/2000/svg">
<metadata></metadata>
<defs>
<font id="cake_dingbatsregular" horiz-adv-x="1024" >
<font-face units-per-em="2048" ascent="1536" descent="-512" />
<missing-glyph horiz-adv-x="500" />
<glyph horiz-adv-x="0" />
<glyph unicode="&#xd;" />
<glyph horiz-adv-x="0" />
<glyph horiz-adv-x="0" />
<glyph unicode=" " />
<glyph unicode="A" horiz-adv-x="1716" d="M0 778q0 147 55 279.5t159 236.5t236.5 159t279.5 55q146 0 278.5 -55t236.5 -159t159 -236.5t55 -279.5q0 -112 -32 -216t-95 -194l344 -345q20 -21 30 -46t10 -51q0 -27 -10 -51.5t-30 -43.5q-20 -20 -44.5 -30t-50.5 -10q-27 0 -52 9.5t-45 30.5l-344 345 q-91 -62 -194.5 -95t-215.5 -33q-147 0 -279.5 55t-236.5 159t-159 236t-55 280zM272 778q0 -92 34.5 -175.5t99.5 -148.5t148.5 -99.5t175.5 -34.5q91 0 174.5 34t148.5 100q65 65 99.5 148t34.5 176q0 92 -34 175t-100 149q-65 65 -148.5 99.5t-174.5 34.5 q-92 0 -175.5 -34.5t-148.5 -99.5t-99.5 -148.5t-34.5 -175.5z" />
<glyph unicode="B" horiz-adv-x="2784" d="M0 537q0 37 4.5 77.5t14 80t24.5 77t37 69.5q3 5 8 9.5t11 6.5l1387 654q7 4 17 4q5 0 13 -2l1237 -396q11 -4 19.5 -14t9.5 -25q0 -27 -24 -38l-1387 -655q-5 -2 -9.5 -3t-9.5 -1q-4 0 -12 2l-1203 386q-7 -16 -16.5 -39.5t-17 -53t-13.5 -65t-6 -74.5q0 -42 7.5 -78.5 t16.5 -66.5t19.5 -51.5t16.5 -33.5l1206 -385l1372 647q8 4 18 4q26 0 38 -24q4 -8 4 -17q0 -11 -6 -22.5t-18 -16.5l-1387 -654q-8 -4 -19 -4q-4 0 -12 2l-1237 396q-1 0 -3 2q-2 0 -3 1t-4 2q-4 2 -6.5 5t-5.5 6q-1 2 -14 24.5t-27.5 61t-27 90.5t-12.5 112zM1311 59 q0 11 6 21.5t18 16.5l1387 655q7 3 17 3q11 0 22.5 -6t16.5 -18q4 -8 4 -18q0 -11 -6 -22t-18 -16l-1387 -654q-5 -2 -9.5 -3t-9.5 -1q-26 0 -37 25q-4 8 -4 17zM1311 241q0 26 24 38l1387 655q5 2 8.5 3t9.5 1q26 0 38 -24q4 -8 4 -18q0 -11 -6 -22t-18 -16l-1387 -654 q-8 -4 -19 -5q-26 0 -37 24q-4 8 -4 18z" />
<glyph unicode="C" horiz-adv-x="2607" d="M0 587q0 84 22 160t64.5 141t105 117.5t146.5 90.5q100 45 222.5 62.5t264.5 17.5q163 0 339 -17.5t354 -37.5l219 -24q0 50 22.5 91.5t66.5 60.5l538 243q28 14 60 14q50 0 95.5 -31t69.5 -85q19 -43 19 -86q0 -50 -23.5 -90.5t-67.5 -60.5l-538 -243q-28 -12 -59 -13 q-62 0 -114 46l-126 -180q-96 -137 -192 -272t-195.5 -251.5t-201.5 -207.5t-208 -139q-127 -57 -251 -57q-83 0 -160.5 26t-147.5 76t-129 123.5t-106 169.5q-4 5 -7 10.5t-5 10.5l-9 24q-34 81 -51 159t-17 152zM125 573q0 -17 1 -32t3 -33q46 57 132 120t230 127 q86 39 187 73t211 64.5t227 57.5t236 53q-135 15 -265.5 25.5t-250.5 10.5q-130 0 -241.5 -16t-198.5 -55q-135 -60 -203 -162t-68 -233zM185 323q0 -12 4 -20q8 -18 36.5 -30.5t80.5 -12.5q59 0 149.5 22t215.5 78q91 42 190 100t202 127t209 146t212 156 q-130 -27 -257.5 -55.5t-247.5 -61t-229 -67.5t-201 -77q-103 -47 -172.5 -91.5t-112 -84.5t-61 -73t-18.5 -56zM302 124q134 -152 316 -152q101 0 207 48q83 37 166 107.5t165 163t163.5 201.5t162.5 224q-98 -73 -195.5 -142.5t-193 -132.5t-187.5 -116t-178 -92 q-135 -61 -234.5 -85t-171.5 -24h-20zM2361 1329q0 -9 1.5 -19.5t6.5 -19.5q11 -24 31.5 -38t43.5 -14q15 0 27 6q20 8 30 27.5t10 41.5q0 18 -8 38q-11 24 -31.5 38t-42.5 14q-16 0 -28 -6q-20 -8 -30 -27t-10 -41z" />
<glyph unicode="D" horiz-adv-x="5411" d="M0 655q0 113 34 218.5t95 197t146.5 166.5t190 128.5t224 83t249.5 29.5q62 0 150.5 -7.5t194.5 -21t227 -33t249 -45t261.5 -56.5t264.5 -68q214 -59 371.5 -117t269.5 -114t182 -108.5t109 -100.5q33 39 80 62.5t103 23.5h2010v-474h-2010q-56 0 -102.5 23t-80.5 63 q-39 -48 -109 -100.5t-182 -108.5t-269.5 -114t-371.5 -118q-131 -36 -264.5 -67t-261.5 -56.5t-249 -45.5t-227 -33.5t-194.5 -20.5t-150.5 -7q-129 0 -249 29.5t-224.5 83t-190 128.5t-146.5 166t-95 196t-34 218zM84 655q23 -16 92 -33.5t178.5 -32.5t257 -23.5 t327.5 -8.5q88 0 211 2t267 6t303 9.5t320 12t316.5 15t293.5 16.5t252 18t191 19q-77 10 -191 19.5t-252 18.5t-293.5 17.5t-316.5 15t-320 12t-303 9.5t-267 6t-211 2q-180 0 -327.5 -9.5t-257 -24t-178.5 -32t-92 -34.5zM104 565q35 -62 114.5 -115.5t190 -92.5 t246 -61.5t284.5 -22.5q60 0 147 3.5t192 11t225 18.5t248 24.5t260 30t259 35.5q172 26 304 50t230 47.5t165.5 44.5t111.5 38q-53 -6 -126.5 -13t-171.5 -14t-223.5 -14.5t-281.5 -15.5q-130 -6 -262.5 -11t-261 -10t-248.5 -8.5t-225 -6t-192.5 -3.5t-149.5 -1 q-30 0 -89 0.5t-133.5 3.5t-159 8.5t-167.5 15t-157.5 23.5t-128.5 35zM104 747q54 20 128.5 34.5t157.5 23.5t167.5 14.5t159 8.5t133.5 3.5t89 0.5q62 0 149.5 -1t192.5 -3.5t225 -6t248.5 -7.5t261 -9.5t262.5 -12.5q157 -8 282 -15t223 -14t171.5 -14t126.5 -14 q-45 18 -112 38.5t-165 43.5t-229.5 48t-304.5 51q-128 19 -259.5 35.5t-259.5 30t-248 24.5t-225 18t-192 11t-147 4q-149 0 -284.5 -22.5t-246 -62t-190 -92.5t-114.5 -115zM119 428q42 -112 121.5 -206.5t187 -163.5t238 -107.5t273.5 -38.5q82 0 205.5 12.5t271.5 35 t313 55.5t333 74t329 88.5t301 100.5t250.5 111.5t177.5 118.5q-51 -21 -124.5 -44t-175 -46t-234.5 -48t-304 -50q-131 -20 -264 -36.5t-261.5 -30.5t-249 -24.5t-225.5 -18t-193 -11.5t-150 -4q-134 0 -256 16.5t-227.5 47.5t-191 73.5t-145.5 95.5zM119 884 q59 53 145 95.5t191.5 73t227.5 47t256 16.5q62 0 150 -3.5t193 -11t225.5 -18t249 -24.5t261.5 -30.5t264 -36.5q171 -25 304 -50t234.5 -49t175 -46t124.5 -43q-66 60 -177 118t-251 111t-301 101t-329 89t-333 73.5t-313 55.5t-271.5 35.5t-205.5 12.5 q-143 0 -273.5 -38.5t-238 -107.5t-187 -163.5t-121.5 -206.5z" />
<glyph unicode="E" horiz-adv-x="6932" d="M0 667q0 61 46 115t125.5 94.5t186 64t228.5 23.5q68 0 151 -6.5t176.5 -16.5t193.5 -23t198 -25.5t191.5 -24t175.5 -18.5q8 135 28 250t48 199t62 131.5t74 47.5h5048v-1627h-5048q-39 0 -74 48t-63 132.5t-47.5 200.5t-27.5 252q-82 -7 -175.5 -18.5t-191.5 -24 t-198 -25.5t-193.5 -23.5t-177 -16.5t-150.5 -6q-122 0 -228.5 23t-186 63.5t-125.5 94.5t-46 116zM1760 490q6 -112 20.5 -203.5t32 -160.5t36 -114t35.5 -64q19 22 41 81t41.5 150.5t32.5 214t13 271.5t-13 271t-32.5 213.5t-41.5 150.5t-41 81q-17 -19 -35.5 -63.5 t-35.5 -113t-31 -159.5t-22 -202q48 -3 90 -3q7 0 13 -13.5t11 -37.5t7.5 -55.5t2.5 -66.5q0 -36 -2.5 -68t-7.5 -55.5t-11.5 -37t-13.5 -13.5q-41 0 -89 -3z" />
<glyph unicode="F" horiz-adv-x="7919" d="M0 665q0 127 48 237.5t130.5 202t193.5 163.5t238 121t262.5 75t268.5 26q194 0 365 -26.5t325 -69.5t295.5 -98t278 -112t272.5 -112t279.5 -98t297 -69.5t327.5 -26.5h2860q-34 -45 -53.5 -99.5t-19.5 -114.5t19.5 -114.5t52.5 -98.5h-2859q-173 0 -327 -26.5 t-297.5 -69.5t-279.5 -98.5t-272.5 -112.5t-278 -112t-295.5 -98t-324.5 -69.5t-365.5 -26.5q-132 0 -268 26t-263 75.5t-238 121t-193.5 163.5t-130.5 202.5t-48 238.5zM481 1001q0 -10 4 -19q14 -24 38 -23q4 0 13 2q89 29 182.5 44t186.5 15q141 0 273.5 -17.5t248 -50.5 t211.5 -77.5t165 -99t107 -117t38 -128.5q0 -44 -15.5 -82.5t-40.5 -71.5t-55 -60.5t-59 -48.5q-17 -10 -17 -33q0 -11 5 -20q11 -23 37 -23q9 0 14 2q115 41 207.5 93.5t155.5 113t97 128.5t34 140q0 79 -40.5 152t-114 137t-176.5 116.5t-228.5 90t-269 58t-299.5 20.5 q-95 0 -189.5 -14.5t-183 -41t-168.5 -65t-145 -86.5q-8 -6 -12 -15.5t-4 -18.5zM6599 669q0 44 16.5 82.5t45.5 67.5t68 46.5t84 17.5h513q-34 -46 -53.5 -100t-19.5 -114t19.5 -114t52.5 -99h-512q-45 0 -84 16.5t-68 45t-45.5 67.5t-16.5 84zM7484 669q0 44 16.5 82.5 t45.5 67.5t68 46.5t84 17.5q44 0 82.5 -17.5t67.5 -46.5t46 -68t17 -82q0 -44 -17 -83t-46 -68t-68 -45.5t-82 -16.5q-45 0 -84 16.5t-68 45t-45.5 67.5t-16.5 84z" />
<glyph unicode="G" horiz-adv-x="1389" d="M0 614q3 103 33.5 209t81 207t117 189.5t142.5 154.5t158 104.5t163 38.5t163 -38.5t158.5 -104.5t142.5 -154.5t116.5 -189.5t81 -207t34.5 -209h-668v184h-65v-184h-438v184h-64v-184h-156zM1 504h1389q-5 -100 -35 -199.5t-79 -187t-115.5 -154.5t-145.5 -101 q-29 -12 -58 -20t-65 -11.5t-83.5 -5.5t-113.5 -2t-113.5 2t-83.5 5.5t-65 11t-58 19.5q-79 34 -145 101.5t-115.5 155t-78.5 187t-35 199.5zM288 683h28v115h-28v-115zM379 683h29v115h-29v-115zM412 197q0 -8 3 -14q8 -15 26 -15h188q12 0 20.5 8.5t8.5 20.5q0 14 -9 22 l-89 136q-9 12 -25 13q-7 0 -14 -3.5t-11 -9.5l-93 -142q-5 -7 -5 -16zM470 683h30v115h-30v-115zM563 683h28v115h-28v-115zM596 939q11 -22 38 -37q25 -13 52 -13h4q11 0 21.5 2t20.5 5q21 8 33 20t21 30q8 20 8 40q0 22 -7 37q-6 16 -20 28q-12 11 -29 20q-19 6 -37 6 q-14 0 -23 -3t-14 -8l11 63h102v49h-140l-23 -112q-1 -8 -2 -15t-3 -13l-4 -20q-2 -5 -2 -10h47q8 11 19 17q10 6 24 6q11 0 18 -4q8 -3 15 -9q6 -7 10 -15q3 -9 3 -18q0 -22 -14 -35q-14 -14 -35 -13q-18 0 -35 9q-18 9 -28 25z" />
<glyph unicode="H" horiz-adv-x="1791" d="M0 -185v1459q0 35 13.5 66t36.5 54.5t54 37t66 13.5h65v19q0 31 21.5 53t52.5 22h198q31 0 53.5 -22t22.5 -53v-19h141v19q0 31 21.5 53t53.5 22h197q31 0 53 -22t22 -53v-19h141v19q0 31 22.5 53t53.5 22h197q31 0 53 -22t22 -53v-19h65q35 0 66 -13.5t54 -37t36.5 -54 t13.5 -66.5v-1459q0 -9 -7 -16t-16 -7h-238q-11 0 -20 11l-37 55q-4 8 -4 13v38h-1151v-38q0 -5 -4 -13l-38 -55q-7 -10 -19 -11h-238q-9 0 -16 7t-7 16zM131 107q0 -30 20.5 -51.5t51.5 -21.5h378q4 -14 15.5 -22.5t25.5 -8.5h551q15 0 26 9t15 22h378q30 0 51 21.5 t21 51.5v34h-1533v-34zM131 193h1533l-95 100h-1343zM188 1216q0 -36 22 -65q17 -21 39.5 -32t47.5 -11q36 0 64 21q21 17 32.5 39.5t11.5 47.5q0 34 -22 65q-16 21 -38.5 32t-47.5 11q-36 0 -65 -22q-21 -16 -32.5 -38.5t-11.5 -47.5zM225 1167q0 2 1 3l19 36q-1 4 -1 10 q0 26 21 42q14 10 32 10q11 0 22.5 -4.5t19.5 -16.5q10 -14 10 -31q0 -11 -5 -22.5t-16 -19.5q-14 -10 -31 -11q-11 0 -24 5l-39 -7q-8 0 -9 6zM226 345h1343v674h-1343v-674zM588 732q0 28 11 56t35 52q2 2 5 2q4 0 6 -2l39 -40q3 -2 4 -6q0 -3 -4 -6q-14 -14 -18.5 -27 t-4.5 -28q0 -18 7 -34t16 -27q22 -24 31.5 -49t9.5 -51q0 -36 -16 -72t-42 -63q-2 -3 -6 -3q-3 0 -6 2l-41 39q-2 2 -2 6t1 6q20 21 29 41.5t9 41.5q0 31 -21 53q-20 21 -31 49.5t-11 59.5zM820 790v8q0 36 14 69t41 60q1 2 6 2q4 0 6 -2l39 -40q3 -2 3 -5t-3 -7 q-18 -18 -25 -37t-7 -38q0 -23 9 -44t23 -37q25 -28 36.5 -58.5t11.5 -61.5q0 -45 -19.5 -87t-50.5 -75q-2 -3 -6 -3q-2 0 -6 2l-41 39l-3 6q0 4 3 6q26 27 38 54.5t12 54.5q0 43 -29 73q-23 25 -36 56.5t-16 64.5zM922 1216q0 -23 8.5 -42.5t23 -34t34 -23t41.5 -8.5 q46 0 77 31t31 77q0 22 -8 41.5t-22.5 35t-34.5 23.5t-43 8q-22 0 -41.5 -8t-34 -23.5t-23 -35t-8.5 -41.5zM977 1216q0 33 29 47l17 36q2 4 6 4t6 -4l18 -36q29 -14 29 -47q0 -22 -15 -37.5t-38 -15.5q-21 0 -36.5 15.5t-15.5 37.5zM1070 733q0 28 11 55.5t34 51.5q4 2 7 2 q1 0 5 -2l40 -40q2 -4 2 -7t-2 -5q-14 -14 -19 -27.5t-5 -28.5q0 -18 7.5 -33.5t16.5 -26.5q21 -24 31 -49t10 -51q0 -36 -16.5 -72t-42.5 -63q-2 -3 -6 -3q-2 0 -6 2l-41 39q-2 4 -2 6t2 6q38 39 38 82q0 32 -21 53q-20 22 -31.5 51t-11.5 60zM1184 1216q0 -23 8.5 -42.5 t23.5 -34t34.5 -23t41.5 -8.5q46 0 77 31t31 77q0 22 -8.5 41.5t-23 35t-34 23.5t-42.5 8q-22 0 -41.5 -8t-34.5 -23.5t-23.5 -35t-8.5 -41.5zM1240 1216q0 33 29 47l17 36q2 4 6 4t6 -4l18 -36q29 -14 29 -47q0 -22 -15 -37.5t-38 -15.5q-21 0 -36.5 15.5t-15.5 37.5z M1447 1216q0 -23 8 -42.5t23 -34t35 -23t42 -8.5q46 0 77 31t31 77q0 22 -8.5 41.5t-23 35t-34 23.5t-42.5 8q-22 0 -42 -8t-35 -23.5t-23 -35t-8 -41.5zM1503 1216q0 33 29 47l16 36q2 4 7 4q4 0 6 -4l18 -36q29 -14 29 -47q0 -22 -15 -37.5t-38 -15.5q-22 0 -37 15.5 t-15 37.5z" />
<glyph unicode="I" horiz-adv-x="2069" d="M0 -119v602q0 2 0.5 3t0.5 5l2 6l1 1q0 1 0.5 2t0.5 2l325 577q21 -6 37.5 -19.5t28.5 -31.5l-285 -506h949l-466 859l-93 -167q-30 26 -70 45l129 227q12 21 35 21q25 0 36 -22l332 -610q71 71 169 89q15 2 28 3.5t27 1.5q76 0 142.5 -34t110.5 -93l226 -15 q18 -2 28 -14l361 -360q14 -16 14 -32q0 -18 -14 -32l-294 -292q-12 -14 -31 -14q-20 0 -32 14l-360 360q-11 11 -14 28l-21 315v4q0 19 13 31l7 6q-29 21 -64 32.5t-72 11.5q-21 0 -40 -3q-41 -7 -77 -28t-63 -52l-3 -3q39 -73 66.5 -122.5t44.5 -81.5t27 -49.5t14 -26 t5 -9.5l1 -2q7 -15 7 -26v-601q0 -17 -11 -29t-29 -12h-1088q-17 0 -29 12t-12 29zM82 -78h1006v173h-1006v-173zM82 268h1006v172h-1006v-172zM259 1186q0 18 11 30t29 12q43 0 82 -13.5t70.5 -37.5t55 -57t35.5 -71q10 2 20 3.5t22 1.5q35 0 66 -13.5t54.5 -36.5t37 -54 t13.5 -66t-13.5 -66.5t-37 -54.5t-54.5 -36.5t-66 -13.5t-66 13.5t-54.5 36.5t-37 54t-13.5 67q0 37 14.5 69t40.5 55q-6 29 -21.5 54t-38 44t-50.5 29.5t-59 10.5q-18 0 -29 11t-11 29zM589 946q0 -21 14 -34.5t34 -13.5t33.5 13.5t13.5 34.5q0 20 -13.5 34t-33.5 14 t-34 -14t-14 -34zM1383 683q0 -35 24.5 -59.5t58.5 -24.5t59 24.5t25 59.5q0 30 -19 53t-49 29q5 -15 10 -29t7 -30q0 -2 0.5 -3.5t0.5 -3.5q0 -15 -10 -26.5t-25 -15.5h-7q-16 0 -27.5 10t-13.5 25q-4 25 -14 46q-20 -25 -20 -55zM1598 318q0 -2 2 -4q15 -8 34.5 -13.5 t41.5 -7.5v-38q0 -6 5 -6h46q5 0 5 6v42q37 8 59.5 32t22.5 57t-18.5 55t-61.5 37q-29 11 -40.5 18.5t-11.5 15.5q0 20 34 20q22 0 37.5 -5t23.5 -9q0 -1 3 -1q1 0 2 -1q2 0 3 1l3 4l13 54q0 2 -2 5q-28 12 -65 15v34q0 6 -5 7h-44q-6 0 -7 -7v-38q-36 -8 -57 -31t-21 -55 q0 -21 8 -35.5t20.5 -25t28 -17.5t31.5 -13q27 -9 35.5 -17.5t8.5 -16.5t-4.5 -12.5t-11 -7t-13 -3t-9.5 -0.5q-10 0 -22 3t-23 7.5t-19.5 7.5t-11.5 3q-1 0 -1.5 -0.5t-1.5 -0.5l-3 -3z" />
<glyph unicode="J" horiz-adv-x="2220" d="M0 178q0 46 17 88.5t52 77.5l154 154q34 34 77.5 51.5t88.5 17.5q44 0 84.5 -15t73.5 -45l161 161l71 -72l-161 -160q30 -33 45.5 -73.5t15.5 -84.5q0 -46 -17 -89t-51 -77l-155 -155q-34 -34 -77.5 -51t-88.5 -17q-46 0 -88.5 17t-77.5 51l-55 54q-34 34 -51.5 77.5 t-17.5 89.5zM101 178q0 -49 31 -87l345 344q-38 32 -88 32q-26 0 -50.5 -9.5t-44.5 -29.5l-155 -155q-20 -20 -29 -44.5t-9 -50.5zM203 20q37 -31 86 -31q26 0 51 9.5t44 29.5l155 155q21 20 31 44t10 50q0 49 -33 88zM489 1040q0 6 0.5 12t1.5 13q6 36 28 65.5t55 46.5 l17 8t42.5 20.5t57.5 28t63.5 31.5t59 29.5t45.5 22.5q75 37 155.5 57t160.5 20l47 101q6 12 17.5 19t25.5 7q11 0 20 -4l84 -40q12 -5 19 -16.5t7 -25.5q0 -11 -4 -19l-25 -54q15 -5 28.5 -11t27.5 -13l25 51q5 12 16.5 18.5t24.5 6.5q12 0 21 -4l83 -39q12 -6 19.5 -17.5 t7.5 -24.5q0 -10 -5 -20l-43 -90l591 -591q23 -23 34 -50.5t11 -57.5q0 -48 -26 -86l-356 -526q-4 -8 -10 -15t-12 -15q-23 -23 -51 -33.5t-58 -10.5t-57.5 11t-50.5 33l-1052 1053q-21 22 -33 50t-12 59zM1346 895q0 -34 10 -74.5t29.5 -84.5t48 -90.5t65.5 -91.5 q42 -53 87.5 -96t90 -72.5t86 -45.5t75.5 -16q37 0 61 20q19 15 28.5 39t9.5 55q0 34 -10.5 75t-29.5 85t-47.5 90.5t-65.5 92.5q-43 53 -88.5 95.5t-90 72t-85.5 45.5t-75 16q-37 0 -62 -19q-19 -15 -28 -40t-9 -56z" />
<glyph unicode="K" horiz-adv-x="2870" d="M0 478q0 8 4 13l322 438q6 9 15 4q7 -4 7 -17v-875q0 -14 -7 -17q-4 -2 -6 -2q-6 0 -9 5l-322 438q-4 5 -4 13zM396 587v197q0 8 5.5 14t13.5 6t13.5 -6t5.5 -14v-121h22v121q0 8 5 14t14 6q8 0 13 -6t5 -14v-121h21v121q0 8 6 14t14 6t13.5 -6t5.5 -14v-197 q0 -26 -15 -46t-37 -28l13 -384q0 -17 -11.5 -29t-27.5 -12q-18 0 -29.5 12t-11.5 29l15 384q-23 8 -38 28t-15 46zM609 612v258q0 8 5 13.5t13 5.5t14 -5t6 -14v-184h21v184q0 8 5 13.5t13 5.5t13.5 -5t5.5 -14v-184h22v184q0 8 5.5 13.5t13.5 5.5t13.5 -5t5.5 -14v-258 q0 -26 -15 -46t-38 -28l15 -409q0 -17 -12 -29t-29 -12t-28 12t-11 29l14 409q-23 8 -37.5 28t-14.5 46zM792 469q0 134 51 251.5t139 205t205 138t251 50.5t251.5 -50.5t205.5 -138t138.5 -205t50.5 -251.5q0 -89 -23 -171.5t-65.5 -154t-101 -131t-130 -101.5t-154 -65 t-172.5 -23q-89 0 -171.5 23t-154 65t-130.5 101.5t-101 131t-65.5 154t-23.5 171.5zM843 469q0 -124 47 -232t128 -189t188.5 -128t231.5 -47q82 0 158 21.5t142.5 60.5t120.5 93.5t93 120.5t60 142t21 158t-21 158t-60 142.5t-93 120.5t-120.5 93t-142.5 60.5t-158 21.5 t-157.5 -21.5t-142 -60.5t-120.5 -93t-93 -120.5t-60.5 -142.5t-21.5 -158zM897 469q0 112 42.5 210.5t116.5 172t172 116t210 42.5t210.5 -42.5t172 -116t116 -171.5t43.5 -211q0 -112 -43 -210.5t-116.5 -171.5t-171.5 -116t-211 -43q-112 0 -210 43t-172 116 t-116.5 171.5t-42.5 210.5zM1075 137q-3 -6 -3 -12q0 -9 7 -15q9 -7 17 -7q5 0 10 3l502 245q21 -29 52 -29q25 0 44 19.5t29 52.5q16 -6 31 -7q28 0 46 18q20 20 17 54l41 20q14 -10 31 -11q22 0 38 16q15 15 14.5 36.5t-14.5 37.5q-14 12 -30 14q8 14 8 28q0 22 -16 38 q-14 14 -34 14q14 32 -11 57q-16 16 -37 16q-2 0 -2 -1q6 29 -14 50q-16 16 -37 15q-2 0 -3.5 -0.5t-3.5 -0.5v6q0 22 -14 37q-16 16 -38 15q-9 0 -13 -2q0 23 -16 39q-15 15 -37 14q-10 0 -16 -2q0 22 -14 37q-18 16 -38 15q-17 0 -30 -9q-2 17 -14 29q-15 16 -37 15 q-22 0 -37 -15q-16 -16 -16 -36q0 -18 12 -33l-181 -368q6 4 14 6.5t16 1.5q8 -2 13 -5q4 8 7 11q7 6 16.5 8.5t17.5 2.5q10 0 20 -1q-2 -29 -25 -49q33 3 59 -11.5t39 -54.5q7 -24 2.5 -50.5t-14.5 -49.5t-22.5 -40t-20.5 -20q-9 -3 -29 4t-41.5 21t-40 33t-25.5 43 q-6 18 -6 34q0 17 7 32q13 28 41 43q-24 2 -39 18zM1082 1244q0 16 11 27t28 11l387 -14q7 22 26.5 36t43.5 14h199q7 0 12.5 -5t5.5 -13t-5.5 -13t-12.5 -5h-128v-20h128q7 0 12.5 -5.5t5.5 -12.5q0 -8 -5.5 -13.5t-12.5 -5.5h-128v-19h128q7 0 12.5 -5t5.5 -13t-5.5 -13.5 t-12.5 -5.5h-199q-24 0 -43.5 14t-26.5 36l-387 -13q-17 0 -28 11.5t-11 26.5zM1102 1426q0 19 13.5 35.5t36 28.5t50.5 19t57 7q48 0 84.5 -18t49.5 -46l344 12q16 0 27.5 -10.5t11.5 -27.5q0 -16 -11.5 -26.5t-27.5 -10.5l-344 11q-12 -27 -49 -45t-85 -18q-29 0 -57 6.5 t-50.5 19t-36 28.5t-13.5 35zM1302 376q-1 -2 -1 -5q0 -4 1 -8q2 -7 7 -11t9 -2q10 3 5 21q-2 7 -6 11t-9 2q-4 -2 -6 -8zM1321 442q2 -7 6.5 -11t10.5 -2q10 4 5 21q-2 7 -7 11t-10 2q-6 -2 -6 -12q0 -4 1 -9zM1364 413q0 -4 2 -10q2 -7 6 -11.5t9 -2.5t6 8t-1 13 t-6.5 11.5t-8.5 2.5q-7 -1 -7 -11zM1377 352q0 -4 1 -9q2 -7 6.5 -11.5t9.5 -2.5q10 3 5 21q-2 7 -7 11.5t-9 1.5q-6 -2 -6 -11zM1382 469q-1 -3 0 -5q0 -4 1 -8q6 -17 16 -14t5 20q-2 8 -6.5 12.5t-8.5 2.5q-5 -2 -7 -8zM1405 397q2 -7 7 -11.5t10 -2.5q4 1 5.5 7t-0.5 13 q-6 16 -17 14q-7 -3 -7 -11q0 -4 2 -9zM1444 529q2 6 6 10.5t9 8.5q6 4 14 9q2 2 2 -1q1 -1 1 -2l3 -4q1 -2 5 -6q9 -10 25 -23q24 -20 52 -28q14 -5 27.5 -6t27.5 4q-4 -4 -9 -6.5t-10 -4.5t-11 -3.5t-12 -2.5q-25 -7 -52 -4q-11 1 -22 3.5t-22 7.5q-9 5 -18.5 11t-14.5 16 q-3 7 -3 12t2 9zM1473 636q-1 3 -1 6q0 7 4 15q5 10 16 14q16 3 32 -2q2 0 2.5 -0.5t2.5 -0.5q0 -3 -1 -5v-8q-1 -5 -1 -9v-9q1 -18 4 -34.5t10 -33.5q6 -15 16.5 -28t25.5 -22q-15 2 -27.5 9t-23.5 15t-22 19.5t-19 22.5q-7 11 -12 23.5t-6 27.5zM1509 405q-1 6 -1 11 q0 9 3 19q0 1 0.5 2t0.5 2q0 2 2 0h2q5 0 9 -1h16q37 0 69 14q15 6 28 16.5t22 24.5q-1 -8 -4.5 -16t-7.5 -16q-9 -16 -19 -27q0 -1 1.5 0.5t-1.5 -0.5q-19 -22 -38 -33q-21 -14 -41 -17q-17 -3 -28 3q-11 5 -13 18zM1559 630q-1 8 -1 15q0 22 7 44q3 11 9.5 21.5t14.5 18.5 q8 7 17 8q9 2 19 -5q11 -8 18 -21q1 -1 1 -2t1 -2t0 -2l-1 -1q-2 -2 -3.5 -2.5t-3.5 -2.5q-6 -5 -12 -11q-26 -26 -39 -58q-6 -15 -9 -32t3 -34q-9 12 -15 31q-6 16 -6 35zM1609 597q2 18 11.5 33.5t20.5 27.5q1 2 -0.5 0.5t0.5 -0.5q17 20 39 35q10 5 21.5 9t22.5 5 q7 1 14.5 0t12.5 -6q7 -6 9 -21q0 -9 -1 -14q0 -2 -0.5 -4.5t-0.5 -4.5q-1 -1 -1 -4l-1 -2q0 -1 -1 0q-9 1 -18 1h-17q-18 -1 -34.5 -4t-31.5 -11q-15 -6 -26.5 -15.5t-18.5 -24.5zM1623 383v2l1 1q2 2 3.5 2.5t4.5 3.5t6 5.5t6 6.5q11 11 21.5 25.5t16.5 30.5t9 33t-2 35 q10 -15 14.5 -32t5.5 -35q1 -2 0.5 0t-0.5 0q3 -32 -6 -60q-4 -11 -9.5 -21t-14.5 -19q-6 -6 -15 -8q-11 -2 -20 5q-6 4 -10.5 10t-8.5 11zM1652 600q23 16 52 19q30 5 58 -1q15 -3 16 -3t-3 0.5t-9.5 1.5t-3.5 1q20 -3 37 -13q15 -7 22 -18q6 -8 6 -16q0 -10 -9 -21 q-6 -6 -10 -8q-1 -1 -7 -5q-1 0 -1.5 -0.5t-1.5 -0.5q0 -1 -1 -1q-1 -1 -2 0q-5 7 -11.5 13t-12.5 12q-26 25 -57 36q-15 5 -31 7t-31 -3zM1686 571q15 -2 27.5 -8.5t23.5 -15.5q22 -16 40 -41q7 -11 12.5 -24t7.5 -27q0 -12 -4 -22q-4 -9 -17 -12q-8 -2 -16 -1t-16 3 q-2 0 -2 1q-2 0 -2 1q1 1 1 4v8q1 4 1 8.5v9.5q-1 18 -4.5 34.5t-10.5 32.5q-6 15 -16.5 28.5t-24.5 20.5zM2138 520v299q0 51 8.5 86t20.5 56.5t25.5 31.5t23.5 10t16 -7.5t9 -16.5q4 -11 4 -24v-541l10 -285q0 -17 -11.5 -29t-28.5 -12q-18 0 -29 12t-11 29l12 357z M2310 520v204q0 51 5.5 85.5t14.5 56.5t20 32t21 10t16 -8t9 -16q4 -10 4 -23v-447l10 -285q0 -17 -11.5 -29t-28.5 -12t-29 12t-12 29l14 361zM2452 704q0 28 6.5 56t18.5 50t28 35.5t35 13.5t35 -13.5t28 -35.5t19 -50t7 -56q0 -47 -18.5 -82.5t-45.5 -48.5l13 -447 q0 -15 -11 -26.5t-27 -11.5q-15 0 -26 11.5t-11 26.5l13 447q-28 12 -46 48t-18 83zM2659 682q0 27 7.5 53t21.5 47t33 34t39 13q22 0 41 -13t33 -34t21.5 -47t7.5 -53q0 -46 -22 -80t-56 -45l13 -431q0 -15 -11 -26.5t-27 -11.5q-15 0 -26 11.5t-11 26.5l13 431 q-33 11 -55 45.5t-22 79.5z" />
<glyph unicode="L" horiz-adv-x="2014" d="M0 1055q0 88 33 172.5t101 151.5q68 68 152 101t172 33t172.5 -33t151.5 -101l36 -41q3 39 20.5 77t48.5 69q34 34 77 52t89 18t89 -18t78 -52q25 -25 40.5 -54.5t23.5 -61.5l164 -558l183 -183q6 -6 6 -17q0 -22 -21.5 -62.5t-60 -93t-92 -114t-116.5 -124.5 q-64 -64 -125.5 -117t-114 -92t-93 -60.5t-62.5 -21.5q-11 0 -17 6l-66 66q-138 137 -242.5 242t-181.5 183t-130.5 130.5t-88.5 87.5l-92 91q-68 68 -101 152t-33 172zM51 1027h129l-27.5 -5t-32.5 -7.5t-29 -9.5t-17 -9q-7 -7 -15 -27q8 -34 20.5 -67.5t32.5 -63.5h119 v235h-180v-46zM57 1125h174v233h-42l-10 -8t-10 -9l-23 -25h36l-2 -3q-18 -2 -43 -9q-32 -41 -52 -85.5t-28 -93.5zM151 786q3 -3 10 -9t9 -12l61 -60v81h-80zM282 653l43 -42v133h143l-2 -4l-27.5 -5t-32.5 -7t-28.5 -8.5t-17.5 -10.5q-6 -6 -11 -18.5t-9 -27t-7 -29.5 t-5 -26l56 -57h133v235h-235v-133zM282 838h235v235h-235v-235zM282 1125h235v233h-235v-233zM282 1410h235v45q-15 2 -29.5 3t-29.5 1q-46 0 -90 -9.5t-86 -28.5v-11zM325 886v141h141l-27.5 -5t-32.5 -7.5t-29 -9.5t-17 -9q-6 -6 -11 -17.5t-9.5 -26t-7.5 -29.5t-5 -28z M325 1173v143h143l-2 -3q-11 -2 -27.5 -5.5t-32.5 -7.5t-29 -8.5t-17 -8.5q-6 -6 -11 -18.5t-9.5 -27t-7.5 -29.5t-5 -27zM436 500l81 -81v81h-81zM569 367l43 -43v133h143l-3 -3l-27.5 -5t-32 -7.5t-28.5 -9t-17 -8.5q-6 -6 -12 -18.5t-9.5 -28t-6.5 -30.5t-4 -26l56 -56 h132v235h-234v-133zM569 551h234v235h-234v-235zM569 838h234v235h-234v-235zM569 1125h234v161q-16 5 -27 17q-8 10 -16 19.5t-16 18.5l-20 17h-155v-233zM569 1410h80q-19 11 -39 19t-41 15v-34zM612 599v145h143l-3 -4l-27.5 -5t-32 -7t-28.5 -9t-17 -10q-7 -6 -12.5 -20 t-9.5 -29.5t-7 -31t-4 -26.5zM612 886v143h143l-3 -2l-27.5 -5t-32 -7.5t-28.5 -9.5t-17 -9q-6 -6 -11.5 -17.5t-9.5 -26t-7 -29.5t-5 -28zM612 1173v143h143l-3 -3q-11 -2 -27.5 -5.5t-32 -7.5t-28.5 -8.5t-17 -8.5q-6 -6 -11.5 -18.5t-9.5 -27t-7 -29.5t-5 -27zM723 213 l80 -81v81h-80zM855 81l43 -44v133h144l-3 -3l-27.5 -5t-32 -7t-28.5 -9t-17 -9q-6 -6 -12 -18.5t-9.5 -27.5t-7 -29.5t-5.5 -26.5l5 -3l53 -54h5q18 6 49.5 25.5t76.5 53.5v156h-234v-132zM855 265h234v235h-234v-235zM855 551h234v235h-234v-235zM855 838h234v235h-234 v-235zM855 1125h234v233h-216q-2 -6 -3 -12.5t-2 -14.5q-1 -17 -13 -30v-176zM894 1410h195v85q-9 2 -19 3.5t-19 1.5q-35 0 -68.5 -13.5t-60.5 -40.5q-8 -8 -15 -17t-13 -19zM898 314v143h144l-3 -3l-27.5 -5t-32 -7.5t-28.5 -9t-17 -8.5q-7 -7 -12.5 -21t-10 -30t-8 -32 t-5.5 -27zM898 599v145h144l-3 -4l-27.5 -5t-32 -7t-28.5 -8.5t-17 -10.5q-7 -6 -12.5 -20t-9.5 -29.5t-7.5 -31t-4.5 -26.5zM898 886v143h144l-3 -2l-27.5 -5t-32 -7.5t-28.5 -9.5t-17 -9q-6 -6 -11.5 -17.5t-9.5 -26t-7.5 -29.5t-5.5 -28zM898 1173v143h144l-3 -3 q-11 -2 -27.5 -5.5t-32 -7.5t-28.5 -8.5t-17 -8.5q-6 -6 -11.5 -18.5t-9.5 -27t-7.5 -29.5t-5.5 -27zM989 -123q6 -6 17 -6q22 0 62.5 21.5t93 60.5t114 92t125.5 117t117.5 125.5t91.5 114t59.5 93t21.5 62.5q0 11 -5 16l68 -68q5 -5 5 -17q0 -25 -27 -76h15 q39 0 81.5 -15.5t79.5 -46.5q44 -36 67 -81t26 -89l-66 -79q-5 -1 -10 -1h-10q-41 0 -83.5 16t-79.5 47t-59.5 69t-30.5 77q-37 -50 -86 -104t-106 -113q-64 -64 -125.5 -117t-114 -91.5t-93 -59t-62.5 -20.5q-11 0 -17 5zM1141 99q10 8 21 17l22 18v36h40l46 43h-129v-114z M1141 265h182l53 56v179h-235v-235zM1141 551h235v235h-235v-235zM1141 838h235v26l-51 163q-11 -2 -27 -5t-32 -7.5t-29 -9.5t-17 -9q-6 -6 -11.5 -19t-10 -28t-8 -31t-5.5 -28q0 -2 -0.5 -2.5t-0.5 -1.5v143h143l-12 44h-174v-235zM1141 1125h158l-50 171q-23 -7 -29 -13 t-11.5 -19.5t-10 -29t-8 -31t-5.5 -27.5q0 -1 -0.5 -1.5t-0.5 -1.5v143h59l-10 36q0 1 -0.5 1.5t-0.5 1.5q0 2 -1 3h-90v-233zM1141 1410h69q-6 9 -13 18t-15 18q-20 20 -41 30v-66zM1184 314v143h143l-2 -3q-11 -2 -27 -5t-32 -7.5t-29 -9t-17 -8.5q-6 -6 -11.5 -19 t-10 -28t-8 -30t-5.5 -27q0 -2 -0.5 -3t-0.5 -3zM1184 599v145h143l-2 -4q-11 -2 -27 -5t-32 -7t-29 -9t-17 -10q-7 -6 -12.5 -20t-10 -29.5t-7.5 -31t-4 -26.5zM1428 378q11 15 22 27t21 25v27h21l32 43h-96v-122zM1428 551h130q20 35 23 48l-88 90q-8 -20 -13 -45.5 t-7 -41.5l-2 -3v112l-43 43v-203zM1677 330q21 -5 41.5 -13t39.5 -20q4 -15 17 -32t34 -34q20 -18 39.5 -27.5t34.5 -11.5q35 -41 52 -89q-3 38 -21.5 77t-51.5 72l-5.5 5.5t-3.5 5.5l-6 4t-5 4l-12 10l-10 7q-33 24 -69 35t-71 11z" />
<glyph unicode="M" horiz-adv-x="15106" d="M0 177v323q0 -45 37 -86.5t104.5 -77.5t162 -65t209 -50.5t247 -32.5t275.5 -11v-323q-143 0 -275.5 11t-247 32.5t-209 50.5t-162 65t-104.5 77.5t-37 86.5zM0 824v323q0 45 37 86t104.5 77t162 65t209 50.5t247 33t275.5 11.5t276 -11.5t247.5 -33t209 -50.5t162 -65 t104.5 -77.5t37 -85.5v-323q0 -58 -59.5 -109t-166.5 -94l-810 203v-324q-143 0 -275.5 11t-247 32.5t-209 51t-162 65.5t-104.5 77.5t-37 86.5zM1035 177v323l810 -202q107 42 166.5 93t59.5 109v-323q0 -57 -59.5 -108.5t-166.5 -93.5zM2519 648v3q0 91 33 172t92 141 t141.5 95.5t181.5 35.5q60 0 110 -10t90.5 -27t74.5 -42t64 -54l-121 -138q-50 46 -102 71t-117 25q-54 0 -99.5 -20.5t-79 -57t-52 -85.5t-18.5 -104v-2q0 -56 18 -105.5t51 -86t79 -58t101 -21.5q36 0 67 7.5t57.5 20.5t51.5 31.5t49 42.5l121 -123q-33 -35 -69 -63.5 t-78 -48.5t-92.5 -30.5t-112.5 -10.5q-95 0 -175.5 34t-139.5 94t-92.5 141t-33.5 173zM3404 410v2q0 54 19.5 93.5t54.5 65.5t84 38.5t107 12.5q50 0 88 -8t73 -19v12q0 58 -35 88.5t-106 30.5q-53 0 -94.5 -9t-87.5 -26l-47 143q54 23 113.5 38t142.5 15 q153 0 223.5 -75.5t70.5 -209.5v-381h-181v71q-34 -37 -82.5 -60t-116.5 -23q-47 0 -88 13t-71.5 38.5t-48.5 63t-18 86.5zM3584 417q0 -37 28 -58t74 -21q66 0 106 32t40 83v33q-24 11 -54.5 18t-63.5 7q-60 0 -95 -23.5t-35 -67.5v-3zM4170 221v896h187v-477l218 239h223 l-250 -259l259 -399h-214l-172 268l-64 -67v-201h-187zM4833 546v3q0 70 24 132.5t67 109t103 73.5t131 27q82 0 143 -29.5t100.5 -79t58.5 -114.5t19 -134v-2q0 -15 -0.5 -24.5t-1.5 -23.5h-458q14 -63 56 -95.5t105 -32.5q47 0 84 15.5t75 52.5l108 -95 q-47 -57 -113.5 -90t-156.5 -33q-74 0 -137 24.5t-109 70t-72 107.5t-26 138zM5017 601h281q-8 62 -44.5 101.5t-95.5 39.5q-58 0 -94 -38t-47 -103zM5638 221v859h351q77 0 138 -22t103.5 -60.5t64.5 -94t22 -120.5v-2q0 -75 -27 -131.5t-73.5 -94.5t-109.5 -57t-136 -19 h-144v-258h-189zM5827 647h150q72 0 110.5 37t38.5 93v2q0 64 -41 97.5t-112 33.5h-146v-263zM6458 221v859h189v-340h349v340h189v-859h-189v345h-349v-345h-189zM7390 221v859h351q77 0 138 -22t103.5 -60.5t65 -94t22.5 -120.5v-2q0 -75 -27 -131.5t-74 -94.5t-110 -57 t-136 -19h-144v-258h-189zM7579 647h150q72 0 111 37t39 93v2q0 64 -41 97.5t-112 33.5h-147v-263zM8519 221l115 430h162q63 0 98 -27t35 -74t-30.5 -74.5t-76.5 -37.5q31 -10 53.5 -31.5t22.5 -57.5q0 -56 -48 -92t-132 -36h-199zM8579 265h144q59 0 92 23t33 62 q0 33 -27.5 49.5t-70.5 16.5h-130zM8631 460h123q57 0 91.5 23t34.5 61q0 31 -23 47.5t-66 16.5h-120zM8983 313q0 11 3 23.5t6 24.5l46 178h47l-49 -181q-2 -8 -3 -17.5t-1 -17.5q0 -31 19 -48.5t52 -17.5q19 0 36.5 7.5t33 21t27.5 32t18 41.5l48 180h48l-86 -318h-46 l13 51q-22 -24 -48.5 -41t-62.5 -17q-47 0 -74 26.5t-27 72.5zM9345 221l86 318h48l-86 -318h-48zM9447 608l13 53h54l-13 -53h-54zM9514 221l121 448h46l-120 -448h-47zM9698 348q0 43 15 78.5t40 62t57 41.5t67 15q50 0 77.5 -23.5t41.5 -54.5l54 202h47l-120 -448h-46 l13 54q-23 -26 -52 -44t-68 -18q-54 0 -90 37.5t-36 97.5zM9748 352q0 -44 25.5 -70.5t64.5 -26.5q26 0 51.5 12.5t45.5 33.5t32 48t12 56q0 43 -27.5 71t-70.5 28q-28 0 -52.5 -12t-43 -33t-28 -48.5t-9.5 -58.5zM10297 221l75 275h-44l12 43h43l11 37q11 49 39 72t69 23 q39 0 63 -14l-11 -40q-14 6 -26 9t-26 3q-22 0 -38.5 -14.5t-25.5 -45.5l-8 -30h104l-12 -43h-103l-74 -275h-48zM10506 302q0 54 40 84t102 30q31 0 60 -5t52 -11l2 7q2 7 3.5 15t1.5 14q0 31 -21.5 48.5t-65.5 17.5q-25 0 -46.5 -5t-42.5 -13l-7 40q23 8 48 13.5t56 5.5 q61 0 93 -26t32 -73q0 -10 -2 -21l-4 -22l-49 -180h-45l13 49q-23 -25 -52 -40.5t-67 -15.5q-20 0 -38 5.5t-32.5 17t-22.5 28t-8 37.5zM10554 307q0 -26 18.5 -41t49.5 -15q20 0 39.5 7t37 19.5t30 30t18.5 38.5l6 22q-21 6 -47.5 10t-56.5 4q-43 0 -69 -20.5t-26 -54.5z M10852 270l30 30q26 -25 54 -36t57 -11q27 0 48.5 14.5t21.5 38.5q0 16 -12.5 28.5t-48.5 25.5q-44 18 -66.5 36t-22.5 52q0 41 32 69t88 28q34 0 65.5 -13t51.5 -30l-27 -33q-20 16 -44 26.5t-51 10.5q-33 0 -50.5 -15t-17.5 -35q0 -16 13 -28t50 -27q44 -18 65.5 -37 t21.5 -49q0 -45 -35 -73t-86 -28q-37 0 -73.5 14t-63.5 42zM11206 278q0 8 1 16.5t3 17.5l51 184h-45l12 43h44l26 96h46l-25 -96h100l-12 -43h-99l-49 -182q-1 -5 -1.5 -11.5t-0.5 -11.5q0 -33 42 -33q22 0 47 10l-12 -44q-24 -9 -50 -9q-34 0 -56 16t-22 47zM11384 167 q27 7 40.5 20.5t18.5 33.5h-23l17 65h57l-16 -55q-11 -41 -31.5 -59t-57.5 -26zM11757 177l30 33q25 -22 57 -35t69 -13q30 0 52 9t36 24q15 14 24.5 32.5t16.5 42.5l8 32q-24 -24 -53 -40t-68 -16q-25 0 -48.5 8t-41.5 23t-29 37t-11 52q0 39 15.5 71.5t40.5 56.5t57 37.5 t65 13.5q26 0 45 -6t33 -17t23.5 -24.5t16.5 -28.5l19 70h46l-72 -273q-10 -36 -22.5 -59t-29.5 -41q-43 -44 -120 -44h-3q-44 0 -85 14.5t-71 40.5zM11850 372q0 -44 28 -65t64 -21q27 0 51.5 10.5t43 28.5t29.5 41t11 47q0 36 -25.5 63.5t-70.5 27.5q-25 0 -49 -10 t-42 -27.5t-29 -42t-11 -52.5zM12187 221l84 318h48l-21 -83q29 42 66 66q34 22 78 22h7l-14 -51h-3q-26 0 -51 -9t-47 -28t-39 -46.5t-27 -63.5l-33 -125h-48zM12456 356q0 37 15 71t40.5 60.5t60 42t72.5 15.5q65 0 105 -39.5t40 -101.5q0 -38 -15.5 -72.5t-41 -61 t-59.5 -42t-71 -15.5q-66 0 -106 40.5t-40 102.5zM12505 357q0 -49 27.5 -74.5t72.5 -25.5q26 0 50.5 11.5t43 32t30 46.5t11.5 54q0 50 -27 76.5t-72 26.5q-28 0 -52.5 -12.5t-43 -33.5t-29.5 -47t-11 -54zM12870 539h47l17 -253l154 254h39l18 -254l152 253h50l-198 -321 h-43l-17 251l-153 -251h-41zM13524 270l31 30q26 -25 54 -36t57 -11q27 0 48.5 14.5t21.5 38.5q0 16 -13 28.5t-48 25.5q-44 18 -66.5 36t-22.5 52q0 41 32 69t88 28q36 0 66.5 -13t50.5 -30l-27 -33q-21 16 -44.5 26.5t-50.5 10.5q-33 0 -50.5 -15t-17.5 -35q0 -16 13 -28 t50 -27q44 -18 65.5 -37t21.5 -49q0 -22 -9 -41t-25.5 -32.5t-39 -20.5t-48.5 -7q-36 0 -72.5 14t-64.5 42zM13870 356q0 37 14.5 71t40 60.5t59 42t72.5 15.5q66 0 105.5 -39.5t39.5 -101.5q0 -38 -15.5 -72.5t-41 -61t-59.5 -42t-71 -15.5q-65 0 -104.5 40.5t-39.5 102.5z M13917 357q0 -49 27 -74.5t73 -25.5q26 0 51 11.5t43.5 32t30 46.5t11.5 54q0 50 -28 76.5t-73 26.5q-27 0 -51 -12.5t-43 -33.5t-30 -47t-11 -54zM14252 221l120 448h47l-119 -448h-48zM14420 221l85 318h48l-85 -318h-48zM14521 608l14 53h54l-14 -53h-54zM14605 348 q0 43 14.5 78.5t39.5 62t57 41.5t67 15q50 0 78 -23.5t41 -54.5l54 202h48l-121 -448h-46l14 54q-24 -26 -53 -44t-67 -18q-54 0 -90 37.5t-36 97.5zM14655 352q0 -44 25 -70.5t64 -26.5q26 0 51.5 12.5t46 33.5t32 48t11.5 56q0 43 -27 71t-70 28q-28 0 -52.5 -12 t-42.5 -33t-28 -48.5t-10 -58.5zM14992 221l18 65h56l-17 -65h-57z" />
<glyph unicode="N" horiz-adv-x="2734" d="M0 26q0 45 16 85t45 69.5t69 46.5t88 17q59 0 97.5 -18t67.5 -46l-59 -68q-24 22 -49.5 34.5t-56.5 12.5q-27 0 -49 -10.5t-38.5 -28t-25 -41.5t-8.5 -50q0 -28 8.5 -52t24.5 -42t38.5 -28.5t49.5 -10.5q36 0 60.5 13t48.5 36l59 -59q-33 -35 -72 -55t-99 -20 q-47 0 -86 16.5t-68 45.5t-45 68t-16 85zM431 -89q0 53 36.5 78t92.5 25q24 0 42.5 -4t36.5 -10v6q0 58 -69 58q-27 0 -46.5 -4t-41.5 -12l-23 68q26 11 54.5 18.5t69.5 7.5q75 0 109 -36t34 -102v-186h-87v35q-18 -18 -41.5 -29.5t-56.5 -11.5q-46 0 -78 25.5t-32 73.5z M519 -85q0 -20 14 -30t36 -10q31 0 51 16t20 40v16q-11 5 -26 8.5t-32 3.5q-29 0 -46 -11t-17 -33zM706 597v717l662 220l661 -220v-717l-661 -220zM772 645l596 -199l596 199v621l-596 199l-596 -199v-621zM805 -182v436h90v-232l107 116h108l-121 -126l125 -194h-104 l-84 131l-31 -33v-98h-90zM985 776q0 -25 30 -46.5t82 -38t121.5 -26t149.5 -9.5v120q-80 0 -149.5 9.5t-121.5 26t-82 37.5t-30 46v-119zM985 1015q0 -25 30 -46.5t82 -38t121.5 -26t149.5 -9.5v120l300 -74q39 15 61 34t22 40v120q0 25 -30 47t-82 38t-122 25.5t-149 9.5 q-80 0 -149.5 -9.5t-121.5 -25.5t-82 -38t-30 -47v-120zM1128 -24q0 34 11.5 65t32.5 53.5t50 36t65 13.5q41 0 69.5 -14.5t48 -38t29 -55t9.5 -65.5q0 -8 -1 -13t-1 -11h-223q7 -31 27.5 -47t50.5 -16q24 0 41.5 7.5t36.5 25.5l52 -47q-22 -27 -54.5 -43t-76.5 -16 q-36 0 -66.5 12t-53 33.5t-35 52.5t-12.5 67zM1217 3h137q-4 31 -21.5 50t-45.5 19q-29 0 -47 -19t-23 -50zM1368 776l300 -75q39 16 61 35t22 40v119q0 -21 -22 -40t-61 -35l-300 75v-119zM1519 -182v419h319v-84h-226v-89h199v-84h-199v-162h-93zM1878 -24q0 34 11.5 65 t32.5 53.5t50 36t65 13.5q41 0 69.5 -14.5t48 -38t28.5 -55t9 -65.5q0 -8 -0.5 -13t-0.5 -11h-223q7 -31 28 -47t51 -16q23 0 40.5 7.5t36.5 25.5l52 -47q-22 -27 -54 -43t-77 -16q-36 0 -66.5 12t-53 33.5t-35 52.5t-12.5 67zM1967 3h137q-4 31 -21.5 50t-45.5 19 t-46.5 -19t-23.5 -50zM2235 -139l39 59q26 -19 52 -28t49 -9q38 0 39 22q0 17 -20 24t-47 15q-17 5 -34 12t-30.5 17.5t-22 27t-8.5 40.5q0 50 33.5 76t83.5 26q30 0 61 -9.5t58 -27.5l-35 -62q-24 15 -46.5 22.5t-39.5 7.5q-33 0 -33 -23q0 -14 16 -20.5t40 -14.5l8 -4 q17 -6 34 -13t31 -18t23 -26.5t9 -37.5q0 -55 -35 -80t-87 -25q-34 0 -70 12t-68 37zM2531 61v77h38v82h92v-82h75v-77h-75v-137q0 -31 29 -31q25 0 44 11v-72q-27 -19 -71 -19q-42 0 -68 20.5t-26 75.5v152h-38z" />
<glyph unicode="O" horiz-adv-x="6154" d="M0 -114v1624h2107v-1624h-2107zM104 -10h1899v1415h-1899v-1415zM442 412v191q0 -39 48.5 -74t131 -61t193.5 -41t238 -15v-191q-127 0 -238 15t-193.5 41t-131 61t-48.5 74zM442 793v190q0 39 48.5 74.5t131 61t193.5 41t238 15.5t238 -15.5t194 -41t131.5 -60.5 t48.5 -75v-190q0 -34 -36 -64t-98 -55l-478 119v-190q-127 0 -238 14.5t-193.5 40.5t-131 61t-48.5 74zM1053 412v191l478 -119q62 24 98 54.5t36 64.5v-191q0 -33 -36 -63.5t-98 -55.5zM2396 709q0 72 25.5 135.5t71.5 110.5t110.5 74t141.5 27q93 0 154.5 -28.5 t107.5 -74.5l-93 -107q-39 34 -79.5 54.5t-91.5 20.5q-43 0 -77.5 -16.5t-60.5 -44.5t-40 -66t-14 -81q0 -44 14 -82t39.5 -66.5t60.5 -45t78 -16.5q58 0 97 20.5t78 56.5l94 -94q-26 -28 -53.5 -50t-60.5 -37t-72 -23t-87 -8q-74 0 -137 26.5t-108.5 72.5t-71.5 108.5 t-26 133.5zM3083 524q0 43 15.5 74t43 51.5t64.5 30.5t83 10q39 0 68.5 -6t56.5 -15v8q0 46 -27.5 70t-81.5 24q-42 0 -74 -7.5t-68 -19.5l-36 110q44 19 88.5 29.5t109.5 10.5q118 0 173 -58t55 -162v-296h-140v55q-27 -29 -64 -46.5t-90 -17.5q-36 0 -68 10t-56 30t-38 49 t-14 66zM3224 533q0 -30 21.5 -47.5t57.5 -17.5q51 0 82 25.5t31 65.5v26q-19 8 -42.5 13t-50.5 5q-47 0 -73 -18t-26 -52zM3679 378v695h144v-370l169 186h173l-194 -201l201 -310h-165l-134 209l-50 -53v-156h-144zM4193 630q0 56 18.5 105t51.5 85.5t79.5 57t102.5 20.5 q63 0 110.5 -22.5t77.5 -61t45 -89t15 -104.5v-19.5t-1 -18.5h-355q11 -50 43 -75t82 -25q36 0 64.5 12.5t58.5 39.5l83 -73q-36 -45 -87.5 -69.5t-121.5 -24.5q-57 0 -105.5 19t-84.5 54t-56 83t-20 106zM4335 674h218q-7 49 -34 78.5t-74 29.5q-45 0 -73.5 -29t-36.5 -79z M4817 378v667h260q78 0 143.5 -25.5t112.5 -69.5t73 -105t26 -132t-26 -132t-73 -106t-112.5 -71t-143.5 -26h-260zM4963 511h114q45 0 82 14.5t63.5 41t41 63t14.5 81.5t-14.5 82t-41 63.5t-63.5 41.5t-82 15h-114v-402zM5532 709q0 72 25.5 135.5t71.5 110.5t110 74 t141 27q47 0 85.5 -7t70 -20.5t57.5 -33t50 -42.5l-94 -107q-38 34 -79 54.5t-91 20.5q-43 0 -78 -16.5t-60.5 -44.5t-40 -66t-14.5 -81q0 -44 14 -82t39.5 -66.5t61 -45t78.5 -16.5q57 0 96 20.5t79 56.5l93 -94q-26 -28 -53.5 -50t-60 -37t-72 -23t-87.5 -8 q-74 0 -136 26.5t-108 72.5t-72 108.5t-26 133.5z" />
<glyph unicode="P" horiz-adv-x="1274" d="M0 -120q3 22 9.5 57.5t18 73t30.5 71.5t46 55q23 17 61 35.5t83 37t93.5 37t94.5 33.5v-68q0 -33 19.5 -61.5t52.5 -48.5q-44 -6 -86.5 -22t-78.5 -49.5t-62 -88t-36 -138.5h-166q-35 0 -58 23q-21 19 -21 46v7zM180 1239q0 48 23.5 91t68.5 68q42 23 90 23q36 0 66 -12 q16 34 43 63t65 46q47 22 96 22q64 0 120 -33.5t85 -96.5q0 -1 0.5 -1.5t0.5 -1.5q35 15 70 15q48 0 90.5 -24.5t67.5 -68.5q25 -43 24 -90q0 -48 -23.5 -91t-68.5 -68q-31 -17 -66 -22v-207l-6 -77q14 -3 25.5 -14.5t16.5 -36.5v-5q0 -5 -2 -11t-11 -7q-10 0 -12.5 8 t-3.5 9q-3 21 -25 20q-2 -1 -5 -5.5t-9 -16.5q-5 -11 -17 -12q-4 0 -8 2q-12 5 -12 18q0 3 2 7l3 4v84q-42 -9 -103 -14.5t-133 -5.5t-133 5.5t-100 14.5v-84l2 -4q1 -2 1 -6q0 -14 -12 -19q-4 -2 -7 -2q-12 0 -17 12t-9 16.5t-5 5.5q-6 0 -10 -6t-6.5 -15t-3 -19.5 t-0.5 -17.5q0 -23 6 -42.5t13.5 -34t16.5 -23.5t15 -9t11 -4q6 -6 6 -15v-108q0 -15 6 -26.5t17 -20.5l150 -119q15 -14 38 -13h39q23 0 38 13q4 4 12 4q10 0 15 -7q4 -5 4 -12q0 -10 -8 -15q-27 -22 -61 -22h-39q-35 0 -62 22l-149 120q-37 29 -38 76v93q-14 6 -26 20 t-21.5 33.5t-15 42.5t-5.5 47q0 50 14 70.5t32 24.5l-7 77v207q-39 7 -74 30t-55 61q-12 21 -18 43.5t-6 46.5zM224 1239q0 -36 19 -68q5 -10 16 -10q4 0 10 2q9 7 9 17q0 4 -3 9q-12 23 -12 51q0 13 3 25q11 41 47 60q23 14 48 14q26 0 49.5 -13.5t38.5 -37.5q0 -1 1 -1.5 t1 -1.5q2 -12 5.5 -25t9.5 -24q2 -6 7 -9t10 -3q6 0 8 3q11 5 12 16q0 2 -2 8q-7 15 -10.5 31t-3.5 32q0 42 22 77.5t61 54.5q28 14 61 13q23 0 50 -8q58 -21 83 -75q5 -11 18 -11q3 0 7 2q11 5 12 16q0 2 -2 9q-16 33 -43 57.5t-61 37.5q-28 10 -61 11q-42 0 -80 -18 q-43 -21 -69 -57t-34 -79q-39 33 -90 33q-35 0 -67 -19q-50 -27 -64 -83l-4 -18t-2 -18zM284 -196q14 100 50 153.5t84.5 78.5t105 29.5t108.5 4.5q41 0 77.5 10.5t63 30.5t42 45.5t15.5 55.5v68q45 -16 94 -34t94 -36.5t82.5 -37t60.5 -35.5q28 -21 47 -55t30.5 -71.5 t18 -73.5t9.5 -57v-5q0 -29 -21 -48q-23 -23 -59 -23h-902zM461 484h15q21 -26 53 -26q29 0 45 26q10 17 29 17q17 0 29 -13q12 12 31 13q20 0 30 -17q8 -14 20 -20t25 -6q15 0 29 6.5t24 19.5h13q-5 -35 -30 -58.5t-64 -23.5q-25 0 -45.5 10t-32.5 25q-11 -16 -31.5 -25.5 t-44.5 -9.5q-38 0 -63.5 23.5t-31.5 58.5zM464 -106q0 -18 12 -30.5t30 -12.5t30 12.5t12 30.5t-12.5 30t-29.5 12q-18 0 -30 -12t-12 -30zM577 352q0 18 11.5 29.5t28.5 11.5h55q14 0 23.5 -8t13.5 -20q33 3 66.5 20.5t60.5 46t45 67t21 84.5q-7 5 -8 18t-1 28q8 4 10 12 t2 16.5t1.5 14.5t9.5 6q18 0 30 -14t12 -35q0 -31 -24 -44q-3 -45 -21.5 -89t-48.5 -80t-70 -59t-88 -25q-10 -20 -34 -19h-55q-17 0 -28.5 11t-11.5 28zM698 -106q0 -18 12 -30.5t30 -12.5t30.5 12.5t12.5 30.5t-12.5 30t-30.5 12t-30 -12t-12 -30zM830 1342q0 -5 3 -10 q4 -9 17 -9q6 0 9 2q24 14 48 14q7 0 13.5 -1t14.5 -3q37 -9 60 -47q12 -24 12 -48q0 -27 -13.5 -50t-37.5 -37q-8 -5 -8 -17q0 -6 2 -9q5 -10 17 -11l9 3q33 20 51.5 52.5t18.5 68.5q0 18 -4 34.5t-14 31.5q-15 24 -36 41.5t-48 24.5q-9 2 -18 3.5t-18 1.5q-37 0 -69 -19 q-9 -5 -9 -16z" />
<glyph unicode="Q" horiz-adv-x="1987" d="M0 1286q0 44 12.5 88t36 79.5t57 58.5t75.5 23t75.5 -23t56.5 -58.5t35.5 -80t12.5 -87.5q0 -56 -9.5 -104t-24.5 -90.5t-32.5 -81.5t-32.5 -79.5t-25 -84t-10 -93.5v-626q-22 17 -46 16q-25 0 -47 -16v626q0 50 -10 93.5t-25 84t-32 79.5t-32 81.5t-25 90t-10 104.5z M77 1141q0 -2 1 -3q18 -51 45 -79.5t58 -28.5q26 0 49 19.5t40.5 53t27 78t9.5 95.5q0 42 -12.5 82.5t-32.5 68.5q-2 3 -8 3q-3 0 -4 -1q-5 -2 -5 -7q0 -3 1 -4q11 -39 12 -80q0 -47 -8.5 -88t-23 -72t-34 -49.5t-40.5 -18.5q-20 0 -34.5 12t-24.5 25q-1 4 -7 4q-3 0 -4 -1 q-5 -2 -5 -9zM135 46q0 20 13.5 33t33.5 13t33 -13.5t13 -32.5v-112q-22 17 -46 16q-25 0 -47 -16v112zM135 -147q0 20 13.5 33t33.5 13t33 -13.5t13 -32.5q0 -20 -13.5 -33.5t-32.5 -13.5q-20 0 -33.5 13.5t-13.5 33.5zM587 79v289q25 -31 62 -50.5t81 -19.5h705 q25 0 43.5 18t18.5 43q0 11 -4.5 20.5t-10.5 18.5q6 8 10.5 18.5t4.5 21.5t-4.5 20.5t-10.5 18.5q6 8 10.5 18.5t4.5 21.5q0 24 -18 42q8 8 13 19t5 23v496h77q8 0 15 -6.5t7 -15.5v-876q0 -8 -6.5 -14.5t-15.5 -6.5h-844q-21 0 -39 -8t-31.5 -21.5t-21.5 -31.5t-8 -38 q0 -42 29.5 -71t70.5 -29h844q8 0 15 -6t7 -16q0 -9 -6.5 -15t-15.5 -6h-844q-30 0 -56 10.5t-45 30.5t-30.5 46t-11.5 56zM587 480v783q0 29 11.5 55.5t30.5 45.5t45 30.5t56 11.5h705q9 0 15.5 -6t6.5 -16v-783q0 -9 -6 -15t-16 -6h-705q-42 0 -71 -29.5t-29 -70.5 q0 -21 8 -38.5t21.5 -31t31.5 -21.5t39 -8h705q9 0 15.5 -6t6.5 -16q0 -9 -6 -16t-16 -7h-705q-30 0 -56 11.5t-45 31t-30.5 45.5t-11.5 56zM708 36q0 9 6.5 15.5t15.5 6.5h844q8 0 15 -6t7 -16q0 -9 -6.5 -15t-15.5 -6h-844q-9 0 -15.5 6t-6.5 15zM708 114q0 9 6.5 16 t15.5 7h844q8 0 15 -6.5t7 -16.5q0 -8 -6.5 -14.5t-15.5 -6.5h-844q-9 0 -15.5 6.5t-6.5 14.5zM708 438q0 9 6.5 15.5t15.5 6.5h705q9 0 15.5 -6t6.5 -16q0 -9 -6 -16t-16 -7h-705q-9 0 -15.5 7t-6.5 16zM708 517q0 8 6.5 15t15.5 7h705q9 0 15.5 -6.5t6.5 -15.5t-6 -16 t-16 -7h-705q-9 0 -15.5 7t-6.5 16zM1834 97q0 30 22 51.5t53 21.5t53 -21.5t22 -51.5q0 -31 -22 -53.5t-53 -22.5t-53 22t-22 54zM1834 176v615q0 31 22 53t53 22t53 -21.5t22 -53.5v-315q-20 21 -47 29v-209q27 -6 47 -28v-92q-15 15 -33.5 23.5t-41.5 8.5t-41.5 -9 t-33.5 -23zM1834 870l32 100q5 12 16.5 20t26.5 8t26 -8t16 -19l33 -101q-15 15 -34 23.5t-41 8.5t-41 -8.5t-34 -23.5zM1876 97q0 -15 9 -25t24 -10t24 10t9 25q0 14 -9.5 23.5t-23.5 9.5q-15 0 -24 -10t-9 -23zM1880 1027l15 48q3 9 14 9q10 0 13 -9l16 -48q-7 3 -14 5 t-15 2t-15 -2t-14 -5z" />
<glyph unicode="R" horiz-adv-x="1667" d="M0 542v851q0 9 10 9h651q-26 -36 -44 -80h-536v-710h1109v131q21 8 40.5 19t39.5 23v-243q0 -10 -10 -10h-494q10 -31 27.5 -58.5t41 -48.5t53.5 -33.5t66 -12.5h7.5h13.5t13 -0.5t7 -1.5l106 -73q4 -4 4 -11q-2 -7 -10 -7h-912q-9 0 -11 10q0 5 5 8l105 73q0 1 6.5 1.5 t13 0.5h13h7.5q36 0 65 12t51.5 33.5t38.5 49t27 58.5h-494q-10 0 -10 10zM43 -73q0 11 11 21.5t31.5 18.5t47.5 12t57 4q19 0 41.5 -1t46 -3t46.5 -5.5t42 -8.5q4 47 13.5 77.5t23.5 30.5h902q14 0 24 -31t14 -77q19 5 41 8.5t45.5 5.5t46 3t41.5 1q31 0 58 -4t47.5 -12 t32 -18t11.5 -22q0 -11 -11.5 -21t-32 -17.5t-47.5 -12t-58 -4.5q-19 0 -41.5 0.5t-46 2t-45.5 4.5t-41 8q-4 -46 -14 -75.5t-24 -29.5h-902q-14 0 -23.5 29.5t-13.5 75.5q-19 -5 -42 -8t-46.5 -4.5t-46 -2t-41.5 -0.5q-30 0 -57 4.5t-47.5 12t-31.5 17.5t-11 21zM157 204 v39q0 11 10 11h943q9 0 10 -11v-39q0 -10 -10 -11h-943q-10 0 -10 11zM192 770v38h132v-38h-132zM192 836v39h132v-39h-132zM192 1189v39h132v-39h-132zM263 696v38h551v-38h-551zM263 908v38h369q5 -11 11 -20l12 -18h-392zM263 981v38h189v-38h-189zM263 1051v38h323 l7 -38h-330zM263 1122v38h319v-9v-14.5t1 -14.5h-320zM489 981v38h113q3 -9 6.5 -18.5t7.5 -19.5h-127zM628 1151q0 74 25.5 141t74.5 122q59 65 136 98t159 33q71 0 139 -25t124 -74q63 -56 97.5 -133.5t34.5 -161.5q0 -112 -60 -208l250 -222q23 -21 23 -50q0 -25 -18 -46 q-20 -23 -52 -23q-27 0 -45 17l-248 222q-53 -43 -116.5 -63.5t-128.5 -20.5q-71 0 -138.5 24.5t-124.5 75.5q-63 56 -97.5 133t-34.5 161zM740 1151q0 -60 24 -115.5t70 -95.5q41 -36 89.5 -54t99.5 -18q59 0 114 23.5t98 71.5q34 39 52.5 87t18.5 101q0 61 -24 116t-70 96 q-41 36 -89.5 53.5t-99.5 17.5q-59 0 -113.5 -23.5t-97.5 -70.5q-35 -39 -53.5 -87.5t-18.5 -101.5zM819 1161q0 23 15 37q17 19 41 19q21 0 38 -14l96 -88l150 160q8 9 18.5 13.5t22.5 4.5q10 0 20 -3t18 -12q18 -17 18 -41q0 -10 -3.5 -20t-11.5 -19l-187 -200 q-16 -18 -41 -18q-20 0 -37 15l-139 125q-9 8 -13.5 19t-4.5 22z" />
<glyph unicode="S" horiz-adv-x="1192" d="M0 914q0 2 1 3q1 5 8 5h1045q7 0 9 -7q0 -3 -2 -7q-39 -44 -91.5 -67t-110.5 -23h-74q-18 -24 -44 -36.5t-58 -12.5h-302q-31 0 -58 12.5t-45 36.5h-73q-58 0 -110.5 23t-92.5 67q-2 4 -2 6zM206 670q0 15 9 23t25 8q31 0 58.5 -13.5t55.5 -33.5t57 -44t62 -44.5 t71.5 -34t84.5 -13.5q22 0 38 8t30 22.5t27.5 34.5t30.5 45q24 36 45 58.5t41 22.5q14 0 25 -11q9 -8 13 -20t4 -27q0 -23 -7 -49.5t-16 -55.5l-4 -12q-3 -11 -3 -22q0 -19 9.5 -36t22 -36t25 -45t17.5 -61q-36 -35 -68.5 -88t-44.5 -122q-20 19 -51.5 40t-68 41t-73 37.5 t-64.5 28.5q-22 8 -46.5 32t-50.5 55.5t-53 68.5t-54 71t-52.5 62.5t-48.5 43.5q-25 18 -35.5 34.5t-10.5 31.5zM217 962v353q0 10 11 10h272q-11 9 -18.5 22t-7.5 29q0 14 5.5 25.5t13.5 20.5q-4 21 -21 35.5t-40 14.5q-6 0 -11 4t-5 10t5 11t11 5q31 0 55.5 -18.5 t32.5 -47.5q10 2 16 2q26 0 44 -18t18 -44q0 -16 -7 -28.5t-19 -22.5h264q10 0 10 -10v-353q0 -11 -10 -12h-608q-11 0 -11 12zM239 1079h27q2 9 12 9q9 0 12 -9h535v118h-526q0 -5 -3 -8.5t-8 -3.5t-9 3.5t-4 8.5h-36v-118zM269 1151q0 6 6 6q7 0 7 -6q0 -7 -7 -7 q-6 0 -6 7zM304 1173q0 5 4 8.5t9 3.5q12 0 12 -12q0 -5 -3.5 -9t-8.5 -4t-9 3.5t-4 9.5zM314 1134q0 12 12 13q5 0 9 -4t4 -9t-4 -8.5t-9 -3.5t-8.5 3.5t-3.5 8.5zM344 1101q0 6 6 6t6 -6t-6 -6t-6 6zM369 1170q0 5 3.5 9t8.5 4t9 -3.5t4 -9.5q0 -5 -4 -8.5t-9 -3.5 q-12 0 -12 12zM398 1132q0 7 6 7t6 -7q0 -6 -6 -6t-6 6zM403 694q0 14 10 26t29 12q8 0 12 -1q8 -2 20 -13.5t27 -29.5t32.5 -40t38.5 -45l-16 86q-1 2 -1 7q0 14 10.5 25t27.5 11q10 0 23 -6q7 -5 14.5 -19t15.5 -34.5t18 -46t21 -52.5q-24 -24 -59 -24q-59 0 -104.5 22.5 t-84.5 51.5l-30 54q-4 5 -4 16zM420 1180q0 6 6 6t6 -6t-6 -6t-6 6zM429 1100q0 5 3.5 8.5t8.5 3.5q12 0 13 -12q0 -5 -4 -9t-9 -4t-8.5 4t-3.5 9zM442 1163q0 5 4 9t9 4t8.5 -4t3.5 -9q0 -12 -12 -12q-5 0 -9 3.5t-4 8.5zM495 1120q0 6 7 6q6 0 6 -6q0 -8 -6 -8t-7 8z M537 1399q0 -7 5 -12.5t14 -5.5q7 0 11.5 5.5t4.5 12.5q1 17 -16 17q-8 0 -13.5 -5t-5.5 -12zM550 1164q0 7 7 7q6 0 6 -7q0 -6 -6 -6t-7 6zM623 1105q0 6 6 6t7 -6q-1 -6 -7 -6t-6 6zM649 1135q0 6 7 6q6 0 7 -6q-1 -6 -7 -6q-7 0 -7 6zM845 57q0 65 21.5 119t51 94.5 t62 66t54.5 37.5l158 -77v-515l-335 184q-5 24 -8.5 46.5t-3.5 44.5z" />
<glyph unicode="T" horiz-adv-x="1689" d="M0 762q0 93 26.5 187t75.5 179.5t119 159.5t158 128.5t192 85.5t220 31t220.5 -31t193 -85.5t158.5 -128.5t119 -159.5t75.5 -179t26.5 -187.5q0 -83 -21 -166.5t-61 -162t-97 -148.5t-129 -126q39 -54 83.5 -90.5t90.5 -36.5q38 0 61.5 16t36.5 36t17.5 37.5t4.5 19.5 h115q0 -29 -5.5 -67t-19.5 -77.5t-38.5 -77.5t-63 -68.5t-92 -48.5t-124.5 -18q-65 0 -117 18.5t-94 51t-75 75t-61 90.5q-95 -26 -204 -26q-116 0 -220 31t-192 85t-158 128.5t-119 159.5t-75.5 178.5t-26.5 186.5zM370 762q0 -132 23 -243t74 -191.5t131 -125.5t193 -45 q65 0 121 15q-27 50 -54.5 95.5t-60.5 79t-73 54t-90 20.5q-14 0 -23.5 -2t-16.5 -4q-8 -3 -13 -5l-42 93q25 21 61 37q31 15 78 26.5t111 11.5q112 0 205 -52t149 -150q36 78 53.5 175.5t17.5 210.5q0 132 -23.5 243t-74 191.5t-131 126t-194.5 45.5q-113 0 -193 -45.5 t-131 -126t-74 -191.5t-23 -243z" />
<glyph unicode="U" horiz-adv-x="1487" d="M0 -78v652q0 11 5 27l3 6q2 6 3 7l665 1109q11 18 29 28t39 10t38.5 -10t27.5 -28l662 -1102l7 -14l2 -4q6 -15 6 -30v-651q0 -32 -23 -55t-56 -23h-1330q-32 0 -55 23t-23 55zM157 1h1173v162h-1173v-162zM157 333h1173v162h-1173v-162zM645 1290l11 -315q0 -6 7 -10.5 t16 -4.5h128q8 0 15 4.5t8 10.5l12 316q0 8 -7 12q-6 8 -17 9h-150q-8 0 -17 -9q-4 -2 -5 -6.5t-1 -6.5zM655 719q0 -9 6.5 -16t15.5 -7h132q9 0 16 6.5t7 16.5v131q0 8 -7 14.5t-16 6.5h-132q-9 0 -15.5 -6.5t-6.5 -14.5v-131z" />
<glyph unicode="V" horiz-adv-x="1768" d="M0 1197q0 93 46 176t134 133q42 24 85.5 35t88.5 11q68 0 127 -23q32 68 85 122.5t126 89.5q46 22 93 32t95 10q62 0 121 -17t111 -49t94.5 -79.5t70.5 -106.5q1 -2 1 -3t1 -2q64 26 134 26q93 0 176 -46t133 -133q47 -83 47 -175q0 -93 -46.5 -175.5t-133.5 -132.5 q-60 -34 -128 -44v-542q0 -22 -45.5 -41.5t-124 -34.5t-184.5 -23.5t-226 -8.5t-226.5 8.5t-185.5 23.5t-124.5 34.5t-45.5 41.5v544q-78 11 -144.5 56t-107.5 119q-24 42 -35.5 86t-11.5 88zM299 -25v174q0 -22 45.5 -42t124.5 -35t185 -23t227 -8q120 0 226 8t184.5 23 t124 35t45.5 42v-174q0 -22 -45.5 -41.5t-124 -34.5t-184.5 -23.5t-226 -8.5t-226.5 8.5t-185.5 23.5t-124.5 34.5t-45.5 41.5z" />
<glyph unicode="W" horiz-adv-x="2166" d="M0 1265q0 93 35.5 182t106.5 161q72 72 160 106.5t182 34.5q93 0 182 -35t161 -106q10 -10 20 -21.5t19 -22.5q3 43 21 82.5t51 72.5q36 36 82 54t94 18t94.5 -18t82.5 -54q27 -27 43 -58.5t24 -64.5l173 -591l194 -192q6 -6 6 -19q0 -24 -22.5 -66.5t-63 -98 t-97.5 -120.5t-124 -132q-68 -68 -132 -124t-120 -96.5t-98.5 -63t-66.5 -22.5q-12 0 -18 6l-70 68l-777 777q-72 72 -107 160.5t-35 182.5zM583 786l97 -96l215 215l216 -215l98 96l-216 216l216 215l-98 98l-216 -215l-215 215l-97 -98l216 -215zM1089 -24q6 -6 19 -6 q24 0 66.5 23t98 63.5t120 96.5t132.5 123q68 68 124 133t96.5 120.5t63.5 98t23 66.5q0 12 -6 18l94 -94q6 -6 6 -19q0 -20 -19 -61q33 -5 69 -19.5t70 -39.5q48 -35 78.5 -78t41.5 -85l-48 -73q-4 0 -8.5 -0.5t-8.5 -0.5q-39 0 -83.5 16t-87.5 47q-33 24 -59.5 53.5 t-41.5 60.5q-41 -53 -94 -113.5t-116 -123.5q-68 -68 -132 -124t-119.5 -96.5t-98 -63.5t-66.5 -23q-12 0 -19 7z" />
<glyph unicode="X" horiz-adv-x="1554" d="M0 101v1396q0 53 20.5 99.5t55 81.5t81.5 55t100 20h1258q16 0 28 -11.5t12 -27.5v-1397q0 -17 -12 -28.5t-28 -11.5h-1258q-36 0 -69 -14t-57 -38t-38 -56t-14 -68q0 -37 14 -69.5t38 -56.5t56.5 -38t69.5 -14h1258q16 0 28 -11.5t12 -27.5q0 -17 -12 -28.5t-28 -11.5 h-1258q-53 0 -100 20.5t-81.5 55t-55 81.5t-20.5 100zM217 24q0 17 11.5 28t28.5 11h1258q16 0 28 -11t12 -28t-12 -28.5t-28 -11.5h-1258q-17 0 -28.5 11.5t-11.5 28.5zM217 165q0 17 11.5 28.5t28.5 11.5h1258q16 0 28 -11.5t12 -28.5t-12 -28t-28 -11h-1258 q-17 0 -28.5 11.5t-11.5 27.5z" />
<glyph unicode="Y" horiz-adv-x="1866" d="M7 1490q0 48 13.5 87t43.5 64q43 35 109 35q46 0 98 -16t103.5 -45.5t100 -70t89.5 -88.5q63 -76 95.5 -157.5t32.5 -154.5q0 -30 -9.5 -57.5t-13.5 -51.5l218 -246l190 211q-33 57 -33 121q0 39 13.5 77t40.5 71l397 475q8 10 20.5 14.5t24.5 4.5q19 0 37 -12 q20 -18 19 -44q0 -20 -13 -36l-253 -301l49 -41l253 302q16 20 42 19q23 0 38 -13q10 -8 14.5 -19.5t4.5 -23.5q0 -9 -3 -18.5t-10 -17.5l-253 -301l49 -42l253 301q18 21 43 21q9 0 18.5 -3t18.5 -10q19 -16 19 -41q0 -24 -12 -39l-398 -475q-34 -41 -81 -61.5t-97 -20.5 q-44 0 -84 15l-191 -244l555 -623q14 -16 20 -34.5t6 -36.5q0 -24 -10 -46.5t-30 -40.5q-32 -26 -72 -26q-24 0 -47 10t-39 31l-494 624l-491 -627q-18 -21 -42 -32t-50 -11q-21 0 -40.5 7t-36.5 21q-21 18 -32.5 43t-11.5 51q0 21 7.5 40t21.5 36l558 621l-218 276 q-31 -8 -63 -8q-41 0 -83.5 12.5t-86 35.5t-85.5 57.5t-79 78.5q-35 42 -63 89.5t-48 96t-31 96.5t-11 91z" />
<glyph unicode="Z" horiz-adv-x="1706" />
<glyph unicode="&#xa0;" />
<glyph unicode="&#x2000;" horiz-adv-x="895" />
<glyph unicode="&#x2001;" horiz-adv-x="1791" />
<glyph unicode="&#x2002;" horiz-adv-x="895" />
<glyph unicode="&#x2003;" horiz-adv-x="1791" />
<glyph unicode="&#x2004;" horiz-adv-x="597" />
<glyph unicode="&#x2005;" horiz-adv-x="447" />
<glyph unicode="&#x2006;" horiz-adv-x="298" />
<glyph unicode="&#x2007;" horiz-adv-x="298" />
<glyph unicode="&#x2008;" horiz-adv-x="223" />
<glyph unicode="&#x2009;" horiz-adv-x="358" />
<glyph unicode="&#x200a;" horiz-adv-x="99" />
<glyph unicode="&#x202f;" horiz-adv-x="358" />
<glyph unicode="&#x205f;" horiz-adv-x="447" />
<glyph unicode="&#x25fc;" horiz-adv-x="519" d="M0 0z" />
</font>
</defs>
</svg>
